homebrowse alltop 50faqsd capschat
Half Baked
cover
US Combo Format
HD DVD
Universal Home Entertainment
VC-1 • 1920x1080
US Fully Baked Edition
DVD
Universal Home Entertainment
MPEG-2 • 720x480
cover
thumbthumbthumbthumbthumbthumbthumbthumb
Detail  Zoom
Fullscreen Comparison
US Combo Format HD DVD
Universal Home Entertainment
cover
Video
ID                                       : 1
Format                                   : VC-1
Format profile                           : Advanced@L3
Codec ID                                 : V_MS/VFW/FOURCC / WVC1
Codec ID/Hint                            : Microsoft
Duration                                 : 1h 22mn
Bit rate                                 : 18.6 Mbps
Width                                    : 1 920 pixels
Height                                   : 1 080 pixels
Display aspect ratio                     : 16:9
Frame rate mode                          : Constant
Frame rate                               : 23.976 (24000/1001) fps
Color space                              : YUV
Chroma subsampling                       : 4:2:0
Bit depth                                : 8 bits
Scan type                                : Progressive
Compression mode                         : Lossy
Bits/(Pixel*Frame)                       : 0.375
Stream size                              : 10.7 GiB (93%)
Default                                  : Yes
Forced                                   : No


Audio #1
ID                                       : 3
Format                                   : AC-3
Format/Info                              : Audio Coding 3
Mode extension                           : CM (complete main)
Format settings, Endianness              : Big
Codec ID                                 : A_AC3
Duration                                 : 1h 22mn
Bit rate mode                            : Constant
Bit rate                                 : 640 Kbps
Channel(s)                               : 6 channels
Channel positions                        : Front: L C R, Side: L R, LFE
Sampling rate                            : 48.0 KHz
Frame rate                               : 31.250 fps (1536 spf)
Compression mode                         : Lossy
Stream size                              : 376 MiB (3%)
Title                                    : Englisch
Language                                 : English
Default                                  : No
Forced                                   : No
bitrate
Added on July 1st 2016 03:43:39 AM